Avatar 2009 x264 1080p Esub BluRay 6.0 Dual Audio English Hindi [TEAM DM]

Avatar 2009 x264 1080p Esub BluRay 6.0 Dual Audio English Hindi [TEAM DM]

Format : Matroska
Format version : Version 4
File size : 2.71 GiB
Duration : 2 h 41 min
Overall bit rate : 2 395 kb/s
Movie name : Avatar 2009 [TEAM DM]

Video
Format : AVC
Format/Info : Advanced Video Codec
Format profile : [email protected]
Format settings : CABAC / 4 Ref Frames
Codec ID : V_MPEG4/ISO/AVC
Duration : 2 h 41 min
Bit rate : 1 999 kb/s
Width : 1 920 pixels
Height : 1 080 pixels
Display aspect ratio : 16:9
Frame rate mode : Constant
Frame rate : 23.976 (24000/1001) FPS
Color space : YUV
Chroma subsampling : 4:2:0
Bit depth : 8 bits
Scan type : Progressive
Bits/(Pixel*Frame) : 0.040
Stream size : 2.26 GiB (83%)
Title : [TEAM DM]
Writing library : x264 core 157 r2935 545de2f

Audio #1
Format : AAC LC
Duration : 2 h 41 min
Bit rate : 192 kb/s
Channel(s) : 6 channels
Channel layout : C L R Ls Rs LFE
Sampling rate : 48.0 kHz
Frame rate : 46.875 FPS (1024 SPF)
Compression mode : Lossy
Delay relative to video : -21 ms
Stream size : 222 MiB (8%)
Title : [TEAM DM]
Language : Hindi

Audio #2
Format : AAC LC
Duration : 2 h 41 min
Bit rate : 192 kb/s
Channel(s) : 6 channels
Channel layout : C L R Ls Rs LFE
Sampling rate : 48.0 kHz
Frame rate : 46.875 FPS (1024 SPF)
Compression mode : Lossy
Delay relative to video : -21 ms
Stream size : 222 MiB (8%)
Title : [TEAM DM]
Language : English

Text #1
Format : PGS
Language : English

Text #2
Format : PGS
Language : Hindi

Menu
00:00:00.000 : en:00:00:00.000
00:06:17.961 : en:00:06:17.961
00:07:53.598 : en:00:07:53.598
00:12:04.891 : en:00:12:04.891
00:14:00.465 : en:00:14:00.465
00:20:00.574 : en:00:20:00.574
00:24:00.230 : en:00:24:00.230
00:26:53.278 : en:00:26:53.278
00:31:41.900 : en:00:31:41.900
00:33:33.428 : en:00:33:33.428
00:35:43.850 : en:00:35:43.850
00:43:31.859 : en:00:43:31.859
00:49:23.627 : en:00:49:23.627
00:54:29.975 : en:00:54:29.975
00:59:56.051 : en:00:59:56.051
01:05:10.198 : en:01:05:10.198
01:11:36.417 : en:01:11:36.417
01:15:11.006 : en:01:15:11.006
01:20:29.116 : en:01:20:29.116
01:24:41.910 : en:01:24:41.910
01:36:04.801 : en:01:36:04.801
01:37:55.786 : en:01:37:55.786
01:44:33.100 : en:01:44:33.100
01:48:15.489 : en:01:48:15.489
01:53:53.868 : en:01:53:53.868
01:55:32.759 : en:01:55:32.759
01:58:38.820 : en:01:58:38.820
02:02:05.568 : en:02:02:05.568
02:05:33.859 : en:02:05:33.859
02:10:01.835 : en:02:10:01.835
02:16:07.284 : en:02:16:07.284
02:19:50.841 : en:02:19:50.841
02:25:50.325 : en:02:25:50.325
02:31:14.065 : en:02:31:14.065
02:35:05.296 : en:02:35:05.296

DM Downloading Link Click Here

Related posts:

Aug 11, 2019 - Posted by MrSky - 2 Comments

2 Responses to “Avatar 2009 x264 1080p Esub BluRay 6.0 Dual Audio English Hindi [TEAM DM]”

  1. zahir8255 says:

    upload file with google drive… thanks 🙂

Leave a Reply