Hellboy 2019 x264 720p Esub BluRay 6.0 Dual Audio English Hindi [TEAM DM]

Hellboy 2019 x264 720p Esub BluRay 6.0 Dual Audio English Hindi [TEAM DM]

Format : Matroska
Format version : Version 4
File size : 1.12 GiB
Duration : 2 h 1 min
Overall bit rate : 1 324 kb/s
Movie name : HellBoy 2019 [TEAM DM]

Video
Format : AVC
Format/Info : Advanced Video Codec
Format profile : [email protected]
Format settings : CABAC / 16 Ref Frames
Format settings, CABAC : Yes
Format settings, Reference fra : 16 frames
Codec ID : V_MPEG4/ISO/AVC
Duration : 2 h 1 min
Bit rate : 899 kb/s
Width : 1 280 pixels
Height : 534 pixels
Display aspect ratio : 2.40:1
Frame rate mode : Constant
Frame rate : 23.976 (24000/1001) FPS
Color space : YUV
Chroma subsampling : 4:2:0
Bit depth : 8 bits
Scan type : Progressive
Bits/(Pixel*Frame) : 0.055
Stream size : 778 MiB (68%)
Title : [TEAM DM]
Writing library : x264 core 157 r2935 545de2f

Audio #1
Format : AAC LC
Duration : 2 h 1 min
Bit rate : 192 kb/s
Channel(s) : 6 channels
Channel layout : C L R Ls Rs LFE
Sampling rate : 48.0 kHz
Frame rate : 46.875 FPS (1024 SPF)
Compression mode : Lossy
Delay relative to video : -21 ms
Stream size : 167 MiB (15%)
Title : [TEAM DM]
Language : Hindi

Audio #2
Format : AAC LC
Format/Info : Advanced Audio Codec Low Complexity
Duration : 2 h 1 min
Bit rate : 192 kb/s
Channel(s) : 6 channels
Channel layout : C L R Ls Rs LFE
Sampling rate : 48.0 kHz
Frame rate : 46.875 FPS (1024 SPF)
Compression mode : Lossy
Delay relative to video : -21 ms
Stream size : 167 MiB (15%)
Title : [TEAM DM]
Language : English

Text #1
Format : PGS
Language : English

Text #2
Format : PGS
Language : English

Menu
00:00:00.000 : :Chapter 01
00:08:54.283 : :Chapter 02
00:14:41.714 : :Chapter 03
00:22:34.853 : :Chapter 04
00:30:12.602 : :Chapter 05
00:35:48.729 : :Chapter 06
00:43:50.461 : :Chapter 07
00:53:17.611 : :Chapter 08
01:01:09.791 : :Chapter 09
01:09:24.785 : :Chapter 10
01:17:32.606 : :Chapter 11
01:26:07.579 : :Chapter 12
01:28:37.895 : :Chapter 13
01:37:58.455 : :Chapter 14
01:45:49.968 : :Chapter 15
01:51:06.659 : :Chapter 16

DOWNLOADING LINK HERE

Related posts:

Aug 11, 2019 - Posted by MrSky - No Comments

Leave a Reply