In Bruges 2008 x264 720p Esub BluRay Dual Audio English Hindi [TEAM DM]

In Bruges 2008 x264 720p Esub BluRay Dual Audio English Hindi [TEAM DM]

Format : Matroska
Format version : Version 4
File size : 910 MiB
Duration : 1 h 46 min
Overall bit rate : 1 191 kb/s
Movie name : In Bruges 2008 [TEAM DM]

Video
Format : AVC
Format/Info : Advanced Video Codec
Format profile : [email protected]
Format settings : CABAC / 16 Ref Frames
Codec ID : V_MPEG4/ISO/AVC
Duration : 1 h 46 min
Bit rate : 899 kb/s
Width : 1 280 pixels
Height : 544 pixels
Display aspect ratio : 2.35:1
Frame rate mode : Constant
Frame rate : 24.000 FPS
Color space : YUV
Chroma subsampling : 4:2:0
Bit depth : 8 bits
Scan type : Progressive
Bits/(Pixel*Frame) : 0.054
Stream size : 687 MiB (75%)
Title : [TEAM DM]
Writing library : x264 core 157 r2935 545de2f

Audio #1
Format : AAC LC
Duration : 1 h 46 min
Bit rate : 192 kb/s
Channel(s) : 6 channels
Channel layout : C L R Ls Rs LFE
Sampling rate : 48.0 kHz
Frame rate : 46.875 FPS (1024 SPF)
Compression mode : Lossy
Delay relative to video : -21 ms
Stream size : 147 MiB (16%)
Title : [TEAM DM]
Language : Hindi

Audio #2
Format : AAC LC
Format/Info : Advanced Audio Codec Low Complexity
Duration : 1 h 46 min
Bit rate : 96.0 kb/s
Channel(s) : 2 channels
Channel layout : L R
Sampling rate : 48.0 kHz
Frame rate : 46.875 FPS (1024 SPF)
Compression mode : Lossy
Delay relative to video : 10 ms
Stream size : 73.6 MiB (8%)
Title : [TEAM DM]
Language : English

Text
Language : English

Downloading Link Click Here

Related posts:

Aug 11, 2019 - Posted by MrSky - No Comments

Leave a Reply