Indiana Jones and the Kingdom of the Crystal Skull (2008) 720p BDRip Dual Audio [ Hindi + Eng] [TEAM DM]

Indiana Jones and the Kingdom of the Crystal Skull (2008) 720p BDRip Dual Audio [ Hindi + Eng] [TEAM DM]

/////////////////////////////////////////////////////////////////////////////////////////////////

Indiana Jones and the Kingdom of the Crystal Skull (2008) 720p BDRip Dual Audio [ Hindi + Eng] [TEAM DM]

/////////////////////////////////////////////////////////////////////////////////////////////////

Format : Matroska
Format version : Version 4
File size : 938 MiB
Duration : 2 h 2 min
Overall bit rate mode : Variable
Overall bit rate : 1 070 kb/s
Encoded date : UTC 2019-08-10 05:09:22

Video
ID : 1
Format : AVC
Format/Info : Advanced Video Codec
Duration : 2 h 2 min
Bit rate : 871 kb/s
Width : 1 280 pixels
Height : 528 pixels
Display aspect ratio : 2.40:1
Frame rate mode : Constant
Frame rate : 23.976 (24000/1001) FPS
Color space : YUV
Chroma subsampling : 4:2:0
Bit depth : 8 bits
Scan type : Progressive
Bits/(Pixel*Frame) : 0.054
Stream size : 763 MiB (81%)
Title : [TEAM DM]

Audio #1
ID : 2
Format : MPEG Audio
Format version : Version 1
Format profile : Layer 3
Format settings : Joint stereo / MS Stereo
Codec ID : A_MPEG/L3
Codec ID/Hint : MP3
Duration : 2 h 2 min
Bit rate mode : Variable
Bit rate : 119 kb/s
Nominal bit rate : 128 kb/s
Channel(s) : 2 channels
Sampling rate : 48.0 kHz
Frame rate : 41.667 FPS (1152 SPF)
Compression mode : Lossy
Stream size : 104 MiB (11%)
Title : [TEAM DM]
Language : Hindi
Audio #2
ID : 3
Format : MPEG Audio
Format version : Version 1
Format profile : Layer 3
Format settings : Joint stereo / MS Stereo
Codec ID : A_MPEG/L3
Codec ID/Hint : MP3
Duration : 2 h 2 min
Bit rate mode : Variable
Bit rate : 80.0 kb/s
Channel(s) : 2 channels
Sampling rate : 48.0 kHz
Frame rate : 41.667 FPS (1152 SPF)
Compression mode : Lossy
Stream size : 68.1 MiB (7%)
Title : [TEAM DM]
Language : English

DM DOWNLOADING CLICK HERE

Related posts:

Aug 15, 2019 - Posted by MrSky - No Comments

Leave a Reply