Indiana Jones and the Last Crusade (1989) 720p BDRip Dual Audio [Hindi + Eng] [TEAM DM]

Indiana Jones and the Last Crusade (1989) 720p BDRip Dual Audio [Hindi + Eng] [TEAM DM]

//////////////////////////////////////////////////////////////////////////////////////////////

Indiana Jones and the Last Crusade (1989) 720p BDRip Dual Audio [Hindi + Eng] [TEAM DM]

/////////////////////////////////////////////////////////////////////////////////////////////

Format : Matroska
Format version : Version 4
File size : 895 MiB
Duration : 2 h 6 min
Overall bit rate mode : Variable
Overall bit rate : 986 kb/s
Encoded date : UTC 2019-08-10 04:16:12

Video
ID : 1
Format : AVC
Format/Info : Advanced Video Codec
Format profile : [email protected]
Format settings : CABAC / 12 Ref Frames
Format settings, CABAC : Yes
Format settings, Reference frames : 12 frames
Codec ID : V_MPEG4/ISO/AVC
Duration : 2 h 6 min
Bit rate : 787 kb/s
Width : 1 280 pixels
Height : 544 pixels
Display aspect ratio : 2.35:1
Frame rate mode : Constant
Frame rate : 23.976 (24000/1001) FPS
Color space : YUV
Chroma subsampling : 4:2:0
Bit depth : 8 bits
Scan type : Progressive
Bits/(Pixel*Frame) : 0.047
Stream size : 714 MiB (80%)
Title : [TEAM DM]

Audio #1
ID : 2
Format : MPEG Audio
Format version : Version 1
Format profile : Layer 3
Format settings : Joint stereo
Codec ID : A_MPEG/L3
Codec ID/Hint : MP3
Duration : 2 h 6 min
Bit rate mode : Variable
Bit rate : 119 kb/s
Nominal bit rate : 128 kb/s
Channel(s) : 2 channels
Sampling rate : 48.0 kHz
Frame rate : 41.667 FPS (1152 SPF)
Compression mode : Lossy
Stream size : 108 MiB (12%)
Title : [TEAM DM]
Language : Hindi

Audio #2
ID : 3
Format : MPEG Audio
Format version : Version 1
Format profile : Layer 3
Format settings : Joint stereo / MS Stereo
Codec ID : A_MPEG/L3
Codec ID/Hint : MP3
Duration : 2 h 6 min
Bit rate mode : Variable
Bit rate : 80.0 kb/s
Channel(s) : 2 channels
Sampling rate : 48.0 kHz
Frame rate : 41.667 FPS (1152 SPF)
Compression mode : Lossy
Stream size : 70.6 MiB (8%)
Title : [TEAM DM]
Language : English

DM DOWNLOADING CLICK HERE

Related posts:

Aug 15, 2019 - Posted by MrSky - No Comments

Leave a Reply