Lilo And Stitch 2 2005 x264 720p Esub BluRay Dual Audio English Hindi [TEAM DM]

Lilo And Stitch 2 2005 x264 720p Esub BluRay Dual Audio English Hindi [TEAM DM]

Format : Matroska
Format version : Version 4
File size : 579 MiB
Duration : 1 h 8 min
Overall bit rate : 1 190 kb/s
Movie name : Lilo & Stitch 2 Stitch Has A Glitch 2005 [TEAM DM]

Video
Format : AVC
Format/Info : Advanced Video Codec
Format settings : CABAC / 16 Ref Frames
Codec ID : V_MPEG4/ISO/AVC
Duration : 1 h 8 min
Bit rate : 899 kb/s
Width : 1 280 pixels
Height : 720 pixels
Display aspect ratio : 16:9
Frame rate mode : Constant
Frame rate : 23.976 (24000/1001) FPS
Color space : YUV
Chroma subsampling : 4:2:0
Bit depth : 8 bits
Scan type : Progressive
Bits/(Pixel*Frame) : 0.041
Stream size : 438 MiB (76%)
Title : [TEAM DM]
Writing library : x264 core 157 r2935 545de2f

Audio #1
Format : AAC LC
Duration : 1 h 8 min
Bit rate : 96.0 kb/s
Channel(s) : 2 channels
Channel layout : L R
Sampling rate : 48.0 kHz
Frame rate : 46.875 FPS (1024 SPF)
Compression mode : Lossy
Delay relative to video : -21 ms
Stream size : 46.8 MiB (8%)
Title : [TEAM DM]
Language : Hindi

Audio #2
Format : AAC LC
Duration : 1 h 8 min
Bit rate : 192 kb/s
Channel(s) : 6 channels
Channel layout : C L R Ls Rs LFE
Sampling rate : 48.0 kHz
Frame rate : 46.875 FPS (1024 SPF)
Compression mode : Lossy
Delay relative to video : -21 ms
Stream size : 93.3 MiB (16%)
Title : [TEAM DM]
Language : English

Text
Language : English

Menu
00:00:00.000 : :00:00:00.000
00:05:29.704 : :00:05:29.704
00:12:34.879 : :00:12:34.879
00:18:14.427 : :00:18:14.427
00:21:57.149 : :00:21:57.149
00:27:41.618 : :00:27:41.618
00:37:19.571 : :00:37:19.571
00:41:01.542 : :00:41:01.501
00:45:05.244 : :00:45:05.244
00:47:55.748 : :00:47:55.748
00:55:28.492 : :00:55:28.325
01:01:12.294 : :01:01:12.252

Download Link Click Here

Related posts:

Aug 11, 2019 - Posted by MrSky - No Comments

Leave a Reply