Looper 2012 720p BluRay x264 Dual Audio [Hindi DD 5.1 – English 2.0] ESub [TEAM DM]

Looper 2012 720p BluRay x264 Dual Audio [Hindi DD 5.1 – English 2.0] ESub [TEAM DM]

General
Format : Matroska
Format version : Version 4
File size : 1.51 GiB
Duration : 1 h 58 min
Overall bit rate : 1 822 kb/s

Video
ID : 1
Format : AVC
Format/Info : Advanced Video Codec
Format profile : [email protected]
Format settings : CABAC / 4 Ref Frames
Format settings, CABAC : Yes
Format settings, Reference frames : 4 frames
Codec ID : V_MPEG4/ISO/AVC
Duration : 1 h 58 min
Bit rate : 1 500 kb/s
Width : 1 280 pixels
Height : 544 pixels
Display aspect ratio : 2.35:1
Frame rate mode : Constant
Frame rate : 23.976 (24000/1001) FPS
Original frame rate : 23.976 (23976/1000) FPS
Color space : YUV
Chroma subsampling : 4:2:0
Bit depth : 8 bits
Scan type : Progressive
Bits/(Pixel*Frame) : 0.090
Stream size : 1.25 GiB (82%)
Writing library : x264 core 152 r2851M ba24899

Audio #1
ID : 2
Format : AC-3
Format/Info : Audio Coding 3
Commercial name : Dolby Digital
Codec ID : A_AC3
Duration : 1 h 58 min
Bit rate mode : Constant
Bit rate : 224 kb/s
Channel(s) : 6 channels
Channel layout : L R C LFE Ls Rs
Sampling rate : 48.0 kHz
Frame rate : 31.250 FPS (1536 SPF)
Bit depth : 16 bits
Compression mode : Lossy
Stream size : 190 MiB (12%)
Language : Hindi
Service kind : Complete Main
Default : Yes
Forced : No

Audio #2
ID : 3
Format : AAC LC
Codec ID : A_AAC-2
Duration : 1 h 58 min
Bit rate : 96.0 kb/s
Channel(s) : 2 channels
Channel layout : L R
Sampling rate : 48.0 kHz
Frame rate : 46.875 FPS (1024 SPF)
Compression mode : Lossy
Stream size : 81.6 MiB (5%)
Language : English
Default : No
Forced : No

Text #1
ID : 4
Format : UTF-8
Codec ID : S_TEXT/UTF8
Codec ID/Info : UTF-8 Plain Text
Duration : 1 h 53 min
Bit rate : 43 b/s
Count of elements : 1199
Stream size : 36.4 KiB (0%)
Default : Yes
Forced : No

DM DONWLOADING CLICK HERE

Related posts:

Aug 15, 2019 - Posted by MrSky - No Comments

Leave a Reply