Saving Private Ryan 1998 x264 720p Esub BluRay Dual Audio English Hindi [TEAM DM]

Saving Private Ryan 1998 x264 720p Esub BluRay Dual Audio English Hindi [TEAM DM]

Format : Matroska

Format version : Version 4

File size : 1.54 GiB

Duration : 2 h 48 min

Overall bit rate : 1 304 kb/s

Movie name : Saving Private Ryan 1998 [TEAM DM]

Video

ID : 1

Format : AVC

Format/Info : Advanced Video Codec

Format settings : CABAC / 16 Ref Frames

Format settings, CABAC : Yes

Format settings, Reference fra : 16 frames

Codec ID : V_MPEG4/ISO/AVC

Duration : 2 h 48 min

Bit rate : 899 kb/s

Width : 1 280 pixels

Height : 694 pixels

Display aspect ratio : 1.85:1

Frame rate mode : Constant

Frame rate : 23.976 (24000/1001) FPS

Color space : YUV

Chroma subsampling : 4:2:0

Bit depth : 8 bits

Scan type : Progressive

Bits/(Pixel*Frame) : 0.042

Stream size : 1.06 GiB (69%)

Title : [TEAM DM]

Writing library : x264 core 157 r2935 545de2f

Audio #1

Format : AAC LC

Duration : 2 h 48 min

Bit rate : 192 kb/s

Channel(s) : 6 channels

Channel layout : C L R Ls Rs LFE

Sampling rate : 48.0 kHz

Frame rate : 46.875 FPS (1024 SPF)

Compression mode : Lossy

Delay relative to video : -21 ms

Stream size : 232 MiB (15%)

Title : [TEAM DM]

Language : Hindi

Audio #2

Format : AAC LC

Duration : 2 h 48 min

Bit rate : 192 kb/s

Channel(s) : 6 channels

Channel layout : C L R Ls Rs LFE

Sampling rate : 48.0 kHz

Frame rate : 46.875 FPS (1024 SPF)

Compression mode : Lossy

Delay relative to video : -21 ms

Stream size : 232 MiB (15%)

Title : [TEAM DM]

Language : English

Text #1

Format : PGS

Muxing mode : zlib

Language : English

Text #2

Format : PGS

Language : English

Menu

00:00:00.000 : :Chapter 1

00:04:30.771 : :Chapter 2

00:13:47.160 : :Chapter 3

00:18:56.719 : :Chapter 4

00:26:53.070 : :Chapter 5

00:36:11.961 : :Chapter 6

00:45:47.578 : :Chapter 7

00:57:39.539 : :Chapter 8

01:05:26.923 : :Chapter 9

01:13:45.671 : :Chapter 10

01:17:42.158 : :Chapter 11

01:23:05.606 : :Chapter 12

01:35:29.933 : :Chapter 13

01:46:43.397 : :Chapter 14

01:59:35.543 : :Chapter 15

02:07:25.513 : :Chapter 16

02:17:12.057 : :Chapter 17

02:26:54.514 : :Chapter 18

02:32:42.820 : :Chapter 19

02:42:39.291 : :Chapter 20

Downloading Link Click Here

Related posts:

Aug 11, 2019 - Posted by MrSky - No Comments

Leave a Reply