The Raid Movie Collection x264 720p Esub BluRay 6.0 English Hindi Indonesian [TEAM DM]

The Raid Movie Collection x264 720p Esub BluRay 6.0 English Hindi Indonesian [TEAM DM]

Format : Matroska
Format version : Version 4
File size : 1.56 GiB
Duration : 2 h 30 min
Overall bit rate : 1 483 kb/s
Movie name : The Raid 2 2014 [TEAM DM]
Encoded date : UTC 2019-07-28 01:20:53
Attachments : cover.jpg

Video
Format : AVC
Format/Info : Advanced Video Codec
Codec ID : V_MPEG4/ISO/AVC
Duration : 2 h 30 min
Bit rate : 899 kb/s
Width : 1 280 pixels
Height : 532 pixels
Display aspect ratio : 2.40:1
Frame rate mode : Constant
Frame rate : 23.976 (24000/1001) FPS
Color space : YUV
Chroma subsampling : 4:2:0
Bit depth : 8 bits
Scan type : Progressive
Bits/(Pixel*Frame) : 0.055
Stream size : 967 MiB (61%)
Title : [TEAM DM]
Writing library : x264 core 157 r2935 545de2f

Audio #1
Format : AAC LC
Duration : 2 h 30 min
Bit rate : 192 kb/s
Channel(s) : 6 channels
Channel layout : C L R Ls Rs LFE
Sampling rate : 48.0 kHz
Frame rate : 46.875 FPS (1024 SPF)
Compression mode : Lossy
Delay relative to video : -21 ms
Stream size : 207 MiB (13%)
Title : [TEAM DM]
Language : Hindi

Audio #2
Format : AAC LC
Duration : 2 h 30 min
Bit rate : 192 kb/s
Channel(s) : 6 channels
Channel layout : C L R Ls Rs LFE
Sampling rate : 48.0 kHz
Frame rate : 46.875 FPS (1024 SPF)
Compression mode : Lossy
Delay relative to video : -12 ms
Stream size : 207 MiB (13%)
Title : [TEAM DM]
Language : Indonesian

Audio #3
Format : AAC LC
Duration : 2 h 30 min
Bit rate : 192 kb/s
Channel(s) : 6 channels
Channel layout : C L R Ls Rs LFE
Sampling rate : 48.0 kHz
Frame rate : 46.875 FPS (1024 SPF)
Compression mode : Lossy
Delay relative to video : -12 ms
Stream size : 207 MiB (13%)
Title : [TEAM DM]
Language : English

Text
Format : PGS
Language : English

Downloading Link Click Here

Related posts:

Aug 11, 2019 - Posted by MrSky - No Comments

Leave a Reply