The Transporter Refueled (2015) 1080p BluRay Dual Audio (Hindi+Eng) [TEAM DM]

The Transporter Refueled (2015) 1080p BluRay Dual Audio (Hindi+Eng) [TEAM DM]

Format : Matroska
Format version : Version 4
File size : 1.51 GiB
Duration : 1 h 35 min
Overall bit rate : 2 252 kb/s
Encoded date : UTC 2019-08-10 13:46:20

Video
ID : 1
Format : AVC
Format/Info : Advanced Video Codec
Frame rate mode : Constant
Frame rate : 23.976 (24000/1001) FPS
Color space : YUV
Chroma subsampling : 4:2:0
Bit depth : 8 bits
Scan type : Progressive
Bits/(Pixel*Frame) : 0.054
Stream size : 1.34 GiB (89%)
Title : [TEAM DM]

Audio #1
ID : 2
Format : AAC LC
Codec ID : A_AAC-2
Duration : 1 h 35 min
Bit rate : 126 kb/s
Channel(s) : 2 channels
Channel layout : L R
Sampling rate : 44.1 kHz
Frame rate : 43.066 FPS (1024 SPF)
Compression mode : Lossy
Stream size : 86.1 MiB (6%)
Title : [TEAM DM]
Language : Hindi

Audio #2
ID : 3
Format : AAC LC
Codec ID : A_AAC-2
Duration : 1 h 35 min
Bit rate : 125 kb/s
Channel(s) : 2 channels
Channel layout : L R
Sampling rate : 44.1 kHz
Frame rate : 43.066 FPS (1024 SPF)
Compression mode : Lossy
Stream size : 86.1 MiB (6%)
Title : [TEAM DM]
Language : English

DM DOWNLOADING CLICK HERE

Related posts:

Aug 15, 2019 - Posted by MrSky - No Comments

Leave a Reply