Tolkien 2019 x264 720p Esub BluRay 5.1 Dual Audio English Hindi [TEAM DM]

Tolkien 2019 x264 720p Esub BluRay 5.1 Dual Audio English Hindi [TEAM DM]

[[[[[[[[[[[[[[[[[[[[[[[[[[[[[[[[[[[[[[[[[[[[[[[[[[[[[[[[[[[[[[[[[[[[[[[[[[[[[[[[[[[[[[[[[[[[[[[[[[[[[[[[[[[[[[[[[[[[[[[[

Tolkien 2019 x264 720p Esub BluRay 5.1 Dual Audio English Hindi [TEAM DM]

[[[[[[[[[[[[[[[[[[[[[[[[[[[[[[[[[[[[[[[[[[[[[[[[[[[[[[[[[[[[[[[[[[[[[[[[[[[[[[[[[[[[[[[[[[[[[[[[[[[[[[[[[[[[[[[[[[[[[[[

Format : Matroska
Format version : Version 4
File size : 1.02 GiB
Duration : 1 h 51 min
Overall bit rate : 1 312 kb/s
Movie name : Tolkien 2019 [TEAM DM]

Video
Format : AVC
Format/Info : Advanced Video Codec
Format settings : CABAC / 12 Ref Frames
Format settings, CABAC : Yes
Format settings, Reference fra : 12 frames
Codec ID : V_MPEG4/ISO/AVC
Duration : 1 h 51 min
Bit rate : 899 kb/s
Width : 1 280 pixels
Height : 536 pixels
Display aspect ratio : 2.40:1
Frame rate mode : Constant
Frame rate : 23.976 (24000/1001) FPS
Color space : YUV
Chroma subsampling : 4:2:0
Bit depth : 8 bits
Scan type : Progressive
Bits/(Pixel*Frame) : 0.055
Stream size : 718 MiB (68%)
Title : [TEAM DM]
Writing library : x264 core 157 r2935 545de2f

Audio #1
Format : AAC LC
Duration : 1 h 51 min
Bit rate : 192 kb/s
Channel(s) : 6 channels
Channel layout : C L R Ls Rs LFE
Sampling rate : 48.0 kHz
Frame rate : 46.875 FPS (1024 SPF)
Compression mode : Lossy
Delay relative to video : -21 ms
Stream size : 154 MiB (15%)
Title : [TEAM DM]
Language : Hindi

Audio #2
Format : AAC LC
Duration : 1 h 51 min
Bit rate : 192 kb/s
Channel(s) : 6 channels
Channel layout : C L R Ls Rs LFE
Sampling rate : 48.0 kHz
Frame rate : 46.875 FPS (1024 SPF)
Compression mode : Lossy
Delay relative to video : 2 ms
Stream size : 154 MiB (15%)
Title : [TEAM DM]
Language : English

Text #1
Language : English

Text #2
Format : PGS
Language : Hindi

DM DOWNLOADING CLICK HERE

Related posts:

Aug 15, 2019 - Posted by MrSky - 1 Comment

One Response to “Tolkien 2019 x264 720p Esub BluRay 5.1 Dual Audio English Hindi [TEAM DM]”

  1. Special26 says:

    Super Bhai Thanks For Sharing

Leave a Reply