Transporter 2 (2005) 1080p BluRay Dual Audio(Hindi+Eng) [TEAM DM]

Transporter 2 (2005) 1080p BluRay Dual Audio(Hindi+Eng) [TEAM DM]

………………………………………………………………………………………………………………………………………………………

Transporter 2 (2005) 1080p BluRay Dual Audio(Hindi+Eng) [TEAM DM]

………………………………………………………………………………………………………………………………………………………

Format : Matroska
Format version : Version 4
File size : 1.39 GiB
Duration : 1 h 27 min
Overall bit rate : 2 270 kb/s
Encoded date : UTC 2019-08-10 12:05:14

Video
ID : 1
Format : AVC
Format/Info : Advanced Video Codec
Format settings, CABAC : Yes
Format settings, Reference frames : 4 frames
Duration : 1 h 27 min
Bit rate : 2 026 kb/s
Width : 1 920 pixels
Height : 816 pixels
Display aspect ratio : 2.35:1
Frame rate mode : Constant
Frame rate : 23.976 (24000/1001) FPS
Color space : YUV
Chroma subsampling : 4:2:0
Bit depth : 8 bits
Scan type : Progressive
Bits/(Pixel*Frame) : 0.054
Stream size : 1.24 GiB (89%)
Title : [TEAM DM]
Language : English
Audio #1
ID : 2
Format : AAC LC
Codec ID : A_AAC-2
Duration : 1 h 20 min
Bit rate : 126 kb/s
Channel(s) : 2 channels
Channel layout : L R
Sampling rate : 44.1 kHz
Frame rate : 43.066 FPS (1024 SPF)
Compression mode : Lossy
Stream size : 72.8 MiB (5%)
Title : [TEAM DM]
Language : Hindi

Audio #2
ID : 3
Format : AAC LC
Codec ID : A_AAC-2
Duration : 1 h 27 min
Bit rate : 126 kb/s
Channel(s) : 2 channels
Channel layout : L R
Sampling rate : 44.1 kHz
Frame rate : 43.066 FPS (1024 SPF)
Compression mode : Lossy
Stream size : 78.7 MiB (6%)
Title : [TEAM DM]
Language : English

DM DOWNLOADING CLICK HERE

Related posts:

Aug 15, 2019 - Posted by MrSky - No Comments

Leave a Reply