Wu Assassins S01 720P Hindi [TEAM DM]

Wu Assassins S01 720P Hindi [TEAM DM]

Format : Matroska

Format version : Version 4

File size : 2.50 GiB

Duration : 7 h 30 min

Overall bit rate : 796 kb/s

Movie name : Wu Assassins S01 720P Hindi [TEAM DM]

Format : AVC

Format/Info : Advanced Video Codec

Format profile : [email protected]

Format settings : CABAC / 10 Ref Frames

Format settings, CABAC : Yes

Format settings, Reference fra : 10 frames

Codec ID : V_MPEG4/ISO/AVC

Duration : 7 h 30 min

Bit rate : 699 kb/s

Width : 1 280 pixels

Height : 640 pixels

Display aspect ratio : 2.000

Frame rate mode : Constant

Frame rate : 23.976 (24000/1001) FPS

Color space : YUV

Chroma subsampling : 4:2:0

Bit depth : 8 bits

Scan type : Progressive

Bits/(Pixel*Frame) : 0.036

Stream size : 2.20 GiB (88%)

Title : [TEAM DM]

Writing library : x264 core 157 r2935 545de2f

Audio

Format : AAC LC

Duration : 7 h 30 min

Bit rate : 96.0 kb/s

Channel(s) : 2 channels

Channel layout : L R

Sampling rate : 48.0 kHz

Frame rate : 46.875 FPS (1024 SPF)

Compression mode : Lossy

Delay relative to video : -21 ms

Stream size : 306 MiB (12%)

Title : [TEAM DM]

Language : Hindi

DM DOWNLOADING CLICK HERE

Related posts:

Aug 15, 2019 - Posted by MrSky - No Comments

Leave a Reply